Monday, 2019/05/20, 3:18 PM


Main
Registration
Login
Hackersoft Welcome Guest | RSS  
Site menu

Our poll
Rate my site
Total of answers: 11043

Statistics

Total online: 1
Guests: 1
Users: 0

Mehbooba 2008


Mehbooba 2008 - Hackers Soft

Rip Info
General
Format : AVI
Format/Info : Audio Video Interleave
Format profile : OpenDML
File size : 698 MiB
Duration : 2h 43mn
Overal bit rate : 596 Kbps

Video
Format : MPEG-4 Visual
Format profile : Streaming Video@L1
Format settings, BVOP : Yes
Format settings, QPel : No
Format settings, GMC : No warppoints
Format settings, Matrix : Default
Codec ID : XVID
Codec ID/Hint : XviD
Duration : 2h 43mn
Bit rate : 465 Kbps
Width : 640 pixels
Height : 272 pixels
Display aspect ratio : 2.35
Frame rate : 23.976 fps
Resolution : 8 bits
Colorimetry : 4:2:0
Scan type : Progressive
Bits/(Pixel*Frame) : 0.111
Stream size : 544 MiB (78%)
Writing library : XviD 1.2.0.dev47 (UTC 2006-11-01)

Audio
Format : MPEG Audio
Format version : Version 1
Format profile : Layer 3
Codec ID : 55
Codec ID/Hint : MP3
Bit rate mode : Constant
Bit rate : 128 Kbps
Minimum bit rate : 128 Kbps
Channel(s) : 2 channels
Sampling rate : 48.0 KHz
Resolution : 16 bits
Stream size : 150 MiB (21%)
Encoding settings : CBR


Mehbooba 2008 - Hackers Soft Reduced: 80% of original size [ 640 x 272 ] - Click to view full image



Mehbooba 2008 - Hackers Soft Reduced: 80% of original size [ 640 x 272 ] - Click to view full image



Mehbooba 2008 - Hackers Soft Reduced: 80% of original size [ 640 x 272 ] - Click to view full image


Download


CODE

Sign in

Calendar
«  May 2019  »
SuMoTuWeThFrSa
   1234
567891011
12131415161718
19202122232425
262728293031

IP

Copyright Hackerssoft © 2019